<?xml version="1.0" standalone="no"?>
<!DOCTYPE svg PUBLIC "-//W3C//DTD SVG 1.1//EN" "http://www.w3.org/Graphics/SVG/1.1/DTD/svg11.dtd">
<svg xmlns="http://www.w3.org/2000/svg">
<metadata>Copyright (C) 2019 by original authors @ fontello.com</metadata>
<defs>
<font id="fontello" horiz-adv-x="1000" >
<font-face font-family="fontello" font-weight="400" font-stretch="normal" units-per-em="1000" ascent="850" descent="-150" />
<missing-glyph horiz-adv-x="1000" />
<glyph glyph-name="album-anh" unicode="&#xe800;" d="M123 54c-25 0-49 0-73 0-33 0-50 17-50 50v614c0 33 17 51 50 51h777c34 0 50-17 50-51 0-20 0-41 0-61 0-4 1-7 1-11 25 0 49 0 74 0a64 64 0 0 0 19-3c19-6 29-22 29-44q0-200 0-401 0-109 0-218c0-30-18-48-48-48q-390-1-780-1c-27 0-51 18-50 50 2 24 1 48 1 73z m82-40h713v550h-713z m-123 673v-550h41v8q0 82 0 163 0 146 0 293c0 23 13 39 34 44 7 1 14 1 20 1q303 0 605 0h13v41z m164-625c2 4 4 6 6 9q75 108 150 217c13 18 24 18 38 1 17-23 35-47 53-70 13-18 24-18 38-1q67 89 134 177c4 5 8 9 13 11 11 4 17-3 23-10q52-69 104-139c23-29 45-59 68-89 2-3 4-7 4-11 0-30 0-60 0-91a24 24 0 0 0 0-4z m134 453a72 72 0 0 0-1-143c-40 0-72 33-71 73a71 71 0 0 0 72 70z" horiz-adv-x="1000" />

<glyph glyph-name="am-thanh" unicode="&#xe801;" d="M0 716c253 34 474-31 655-211s245-402 211-655h39c26 0 53 0 79 0 6 0 8 1 9 7 2 26 5 52 6 78 1 27 1 56 0 84-1 26-4 52-7 77a818 818 0 0 1-27 127 871 871 0 0 1-172 318 877 877 0 0 1-159 146 885 885 0 0 1-108 66 864 864 0 0 1-185 70 889 889 0 0 1-120 22 823 823 0 0 1-126 5c-30-2-60-5-90-8-4 0-5-2-5-6 0-24 0-48 0-72 0-16 0-32 0-48z m611-866h7q57 0 114 0c4 0 6 0 7 5a631 631 0 0 1 10 156 616 616 0 0 1-88 285 619 619 0 0 1-109 135c-80 75-173 126-279 152-60 14-121 20-182 16-29-2-57-7-86-10-4-1-5-2-5-6 0-40 0-81 0-121a7 7 0 0 1 1-2c182 39 345 0 477-132s172-295 133-478z m-611 343c108 52 208 43 298-38 43-39 66-88 75-145 8-56-3-109-31-160h13c39 0 79 0 119 0 3 0 5 1 7 4a381 381 0 0 1 19 143 369 369 0 0 1-61 183 372 372 0 0 1-146 131 357 357 0 0 1-96 32c-37 7-74 9-111 5a424 424 0 0 1-80-17c-5-2-6-4-6-8 0-41 0-82 0-122z m0-223c3-70 61-123 130-120 74 3 123 63 120 129-2 74-63 124-129 121-71-3-125-62-121-130z" horiz-adv-x="1000" />

<glyph glyph-name="amply" unicode="&#xe802;" d="M400 348c1 75 61 132 138 132 71-1 129-63 129-136s-61-131-136-130c-73 0-131 60-131 134z m116 95c-46-3-87-54-83-101 5-59 53-101 110-95 57 6 96 56 89 113-5 43-48 86-82 82 0-5 0-10 0-14s-1-9-1-15c-5 0-8 0-11 0-21-1-21-1-21 20 0 3-1 6-1 10z m418-14c0-20 0-41 0-62 0-15-6-20-21-20q-29-1-59 0c-14 0-21 6-21 19q0 64 0 128c0 12 7 19 20 19 20 1 40 0 61 0 13 0 20-6 20-20 0-21 0-42 0-64z m-66 18h32v32h-32z m32-66v31h-32v-32c9 0 17 0 25 0a56 56 0 0 1 7 1z m-150-2h34c0-9-1-18 0-26 1-4 4-10 8-11 28-14 44-38 41-68a66 66 0 0 0-50-58c-28-8-56 3-73 29-20 31-8 78 27 94 11 4 14 10 13 21-1 6 0 12 0 19z m50-100c0 19-13 33-32 34-19 0-33-13-34-32 0-19 13-34 32-34s33 13 34 32z m-516 66v34h33c0-8 0-17 0-25-1-7 2-10 9-13 33-14 49-50 37-83-12-34-46-52-81-42-25 6-46 30-48 54-3 31 11 57 36 69 4 2 9 4 14 6z m16-98c18 0 33 15 33 33s-15 33-33 33c-18 0-34-16-34-34 1-17 16-32 34-32z m-134 233h-32v32h32z m133 32v-32h-32v32z m67-32h-32v32h32z m-200-35v-31h-32v31z m-99 68h31v-33h-31z m200-68h32v-31h-32z m-65 67h32v-31h-32z m164-98h-32v31h32z m501-118c1 10 6 17 16 17s16-6 18-16c1-8-9-18-18-17-9 0-15 7-16 16z m15-82c-9 0-14 6-15 16a16 16 0 0 0 17 16c10 0 16-6 17-16 0-9-8-16-19-16z m118 340c0 19-4 23-23 23-3 0-5 0-8 0l-945 0c-20 0-24-4-24-24q0-192 0-384c0-20 4-24 24-25 20 0 39 0 59 0 0-16 0-31 0-45 0-15 6-20 21-21 25 0 49 0 74 1 17 0 22 5 22 22 0 14 0 29 0 43h600c0-16 0-31 0-45 0-15 6-20 19-20 26-1 52-1 77-1 16 1 20 5 21 21 0 14 0 29 0 45 21 0 41 0 61 0 17 1 22 6 22 22q0 73 0 146 0 121 0 242z m-834-111v-31h-32v31z m-32 35v32h32v-32z m25-101c0-8 0-17-1-25 0-7 3-10 9-13 34-14 49-50 38-83-13-34-47-51-82-42-24 7-45 30-47 54-3 31 10 57 36 69 4 2 9 4 14 6v34z m140 66v-31h-32v31z m-32 35v32h32v-32z m3-141c4 2 9 4 14 6v34h33c0-8 0-17 0-25-1-7 2-10 9-13 33-14 49-50 37-83-12-34-46-52-81-42-25 7-46 30-48 54-3 31 11 57 36 69z m96 106v-31h-32v31z m-32 35v32h32v-32z m-100-66h-32v31h32z m-2 66c-3 0-6 0-9 0-7-1-14 0-22 0v32h31z m-133-67h-32v33h32z m-1 67h-31v33h31z m302-132c1 75 61 132 138 132 71-1 129-63 129-136s-61-131-136-130c-73 0-131 60-131 134z m350 12c-1 6 0 12 0 19h34c0-9-1-18 0-26 1-4 4-10 7-11 29-14 45-38 42-68a66 66 0 0 0-50-58c-28-8-56 4-73 29-20 31-8 78 27 94 11 4 14 10 13 21z m133-80c-10 1-15 7-16 17 1 9 6 16 16 16s16-6 17-16c2-8-8-18-17-17z m17-50c1-9-7-16-18-16-9 1-14 6-15 16a16 16 0 0 0 17 16c10 0 16-6 17-16z m34 137c0-15-6-20-21-20q-30 0-59 0c-14 0-21 6-21 19q0 64 0 128c0 12 7 19 20 19 20 1 40 1 61 0 13 0 20-6 20-20 0-21 0-42 0-63 0-21 0-42 0-63z m-391-120c57 6 97 56 89 113-5 43-48 87-82 82 0-5 0-10 0-14s-1-9-1-15c-4 0-8 0-11 0-21-1-21-1-21 20 0 3-1 6-1 10-46-3-87-54-83-101 5-59 53-101 110-95z m357 232h-32v-32h32z m-32-99c9 0 17 0 25 0a60 60 0 0 1 7 1v31h-32z m-134-99c-1-19 13-34 32-34s33 13 34 32-13 33-32 34c-19 1-33-13-34-32z m-434-34c18 0 33 15 33 33s-15 33-33 33c-18 0-34-16-34-34 1-17 16-32 34-32z m-192 32c0-17 16-32 34-32s33 15 33 33-15 33-33 33c-18 0-34-16-34-34z" horiz-adv-x="1000" />

<glyph glyph-name="chinh-sach-bao-hanh" unicode="&#xe803;" d="M610 209c-6 2-19 6-32 11-52 22-104 23-156 0-58-25-90-9-107 51-16 54-49 94-99 121-55 28-62 62-26 112 32 46 46 96 35 152-11 62 9 86 72 90 59 5 108 27 147 72 39 44 77 42 115-3 37-44 87-64 144-68 66-5 82-27 71-94-9-52 2-102 34-146 39-52 32-85-24-115-52-28-85-71-101-128-11-41-30-56-73-55z m50 305c0 86-72 158-159 159-87 1-162-73-161-160 1-86 74-157 160-156s160 72 160 157z m114-605q-37 23-73 45c-32 20-44 16-56-20-9-27-18-54-28-82l-12-2-105 281-104-279-10-1c-7 15-15 30-19 46-25 97-38 77-103 36-13-9-27-16-40-23l-10 7 99 275c49-33 94-17 144-1 31 10 72 4 105-7 43-14 81-19 124 9 34-93 67-184 100-274z" horiz-adv-x="1000" />

<glyph glyph-name="dan-karaoke" unicode="&#xe804;" d="M107 499h-37v38h37z m1-41v-37h-39v37z m823-175c1 12 7 19 19 19s19-7 20-18c2-10-10-22-20-21-11 1-18 8-19 20z m17-97c-9 1-16 7-17 19a19 19 0 0 0 20 19c12 0 19-8 19-19 1-10-9-19-22-19z m-948-247v822c4-1 8-1 13-1q169 0 338 0h13v-500h273v499h363v-819h-987c-4 0-9 0-13-1z m182 252c75 0 137 62 136 137s-61 135-136 135a136 136 0 0 1-136-135c-1-75 60-137 136-137z m773 135c2 72-59 136-131 137-78 2-139-56-142-134-2-73 59-136 133-138 77-1 138 58 140 135z m-544-113v-113h179v113z m-229-227a69 69 0 0 1 68 68c1 37-31 68-68 68a68 68 0 0 1-68-67c-1-37 31-69 68-69z m637 136a68 68 0 0 1-68-67c-1-37 31-69 68-69 37 0 67 31 68 68s-31 68-68 68z m-636 546c-35 0-67-25-69-66-2-36 28-69 66-70 36 0 68 25 70 66 1 36-24 68-67 70z m635-136c37 0 68 30 69 67 1 37-30 69-68 69-36 1-67-29-68-67-2-36 30-68 67-69z m-386-478h-45v-44h45z m181-44v43h-44v-43z m-90 0c0 13 0 26 0 38 0 2-3 6-5 6-13 0-26 0-40 0v-44z m-342 226a91 91 0 0 0-90 91c0 50 42 92 91 91 51-1 91-39 91-91 0-53-43-91-92-91z m638 0c-50 1-92 41-91 91 0 52 40 91 91 91 50 1 90-41 91-90s-41-92-91-92z m-637-159c12 0 23-11 23-23a24 24 0 0 0-23-22 23 23 0 0 0-23 22 23 23 0 0 0 23 23z m637 0a23 23 0 0 0 23-23 24 24 0 0 0-23-22c-12-1-23 11-23 23a23 23 0 0 0 23 22z m-614 523c-1-12-12-23-24-23s-22 12-22 24c0 12 12 23 24 22s22-12 22-23z m637 1c0-13-11-24-23-24-12 1-23 11-23 23s11 23 23 23c12 0 22-11 23-22z" horiz-adv-x="1000" />

<glyph glyph-name="dau-karaoke" unicode="&#xe805;" d="M99 460v-38h-39v38z m842-178c1 11 7 19 20 19s19-7 20-19c1-10-10-21-20-21-12 1-19 9-20 21z m8 81c0-33-28-62-61-61-33 0-61 29-60 62a60 60 0 0 0 61 60 61 61 0 0 0 60-61z m-60-53a53 53 0 0 1 53 53c0 30-25 55-54 55s-53-25-53-55 23-53 54-53z m0 13c-24 0-41 18-41 41a41 41 0 0 0 41 40c21 0 40-18 41-40a40 40 0 0 0-41-41z m-889 182v-285h74c0-9 1-17 1-25h109c0 8 1 16 2 24h594c1-9 1-17 2-24h108c1 9 1 16 2 26h108v285z m103-68a17 17 0 1 0-17-17 17 17 0 0 0 17 17z m0-156a17 17 0 1 0 17 17 17 17 0 0 0-17-17z m18 56h-36v53h36z m189-54h-61v30h61z m82 1h-62v29h62z m80 0h-62v29h62z m81-1h-61v30h61z m82 1h-62v30h62z m81 0h-61v29h61z m31 56h-529v112h529z m141-51c-41 0-75 34-74 75s34 73 75 73 73-32 73-74a74 74 0 0 0-74-74z" horiz-adv-x="1000" />

<glyph glyph-name="dia-midi" unicode="&#xe806;" d="M112 497h-37v38h37z m1-40v-37h-38v37z m813-173c1 11 7 19 19 19s19-7 20-18c1-10-10-21-20-21-12 1-18 8-19 20z m17-96c-10 1-16 7-17 19a18 18 0 0 0 19 19c12-1 19-8 20-19 1-11-9-19-22-19z m-443-337c-278 0-502 227-500 504 2 269 226 493 497 494 279 1 503-225 503-498 0-276-223-500-500-500z m156 496c2 83-67 156-149 159-86 2-159-64-162-147-3-88 63-162 149-164 88-3 159 64 162 152z m42-132l-64-60 93-163c55 35 98 77 132 132z m-557 362l162-93 63 61-93 163a407 407 0 0 1-132-131z" horiz-adv-x="1000" />

<glyph glyph-name="du-an" unicode="&#xe807;" d="M511-138h-6q-193 0-386 0a94 94 0 0 0-31 6c-27 10-40 30-42 58-1 4-1 7-1 11q0 349 1 697a104 104 0 0 0 3 27c7 28 27 41 54 46a97 97 0 0 0 18 2c42 0 84 0 126 0 9 0 10 0 11 9 8 44 31 77 67 101 28 19 60 28 93 31 39 2 77-4 112-23 44-26 72-63 80-114 0-1 0-2 0-4h7c43 0 86 0 130 0a102 102 0 0 0 29-5c30-9 45-32 46-65 0-29 0-58 0-87q0-114 0-229a15 15 0 0 0-5-12q-100-108-201-217c-1-1-3-3-4-5-10 11-20 21-29 31-17 19-33 37-50 55-17 18-37 30-60 36-25 5-49 2-69-19-18-19-38-37-56-57-14-15-25-32-27-53-1-18 4-33 17-46q83-83 167-166c2-2 5-4 7-6z m-394 706h634a8 8 0 0 1 0 2c0 3 0 5-1 8-4 26-17 48-44 56a103 103 0 0 1-29 4c-44 1-87 0-130 0h-7c0 3 0 5 0 7-2 32-10 62-28 89-35 54-119 54-154 4-16-23-25-49-28-77-1-7-2-15-3-23h-8c-42 0-85 0-128 0a123 123 0 0 1-22-1c-31-6-56-38-52-69z m405-282h48c37 0 74-1 110 0 20 0 33 11 36 30 2 19-7 33-25 38a55 55 0 0 1-14 2q-133 0-265 0c-16 0-32 0-49 0-20 0-34-13-35-32-2-21 10-35 30-38a56 56 0 0 1 9 0z m0 141h141c6 0 13 0 19 0 16 1 29 10 33 24 6 24-7 43-31 46a66 66 0 0 1-9 0h-306c-2 0-4 0-6 0-21-1-34-13-35-32s9-34 28-38a53 53 0 0 1 11 0q77 0 155 0z m-318 0v0c7 0 13 0 20 0 15 1 28 10 32 24 6 25-8 45-34 46-12 1-24 1-36 0-20-1-33-13-35-32-1-21 9-34 29-38 8-1 16 0 24 0z m0-141v0c6 0 13-1 19 0 19 0 33 13 34 31 1 21-9 36-29 38a211 211 0 0 1-47 0c-20-2-30-16-30-35 1-20 12-32 32-34 7-1 14 0 21 0z m186-195c3 6 5 13 9 17 11 12 22 23 34 35 10 9 23 8 33-1q45-46 89-92c12-13 24-26 37-38 11-12 24-11 35 1q119 130 238 260c11 13 23 13 36 3 16-12 32-24 45-39 11-14 12-22 0-35-18-20-36-40-55-60q-132-142-264-283c-11-12-24-12-35 0q-88 98-176 197c-6 6-12 12-17 19-4 4-6 10-9 16z m79 548h-71a134 134 0 0 0 6 40 72 72 0 0 0 9 18c11 16 30 16 41 0 9-12 11-26 13-40 1-6 1-12 2-18z" horiz-adv-x="1000" />

<glyph glyph-name="he-thong-cua-hang" unicode="&#xe808;" d="M499 21c-30 41-61 80-90 120-56 78-108 158-150 244-19 40-36 81-45 125-14 65-3 127 28 184 47 87 120 139 217 153 153 23 297-80 327-230 12-56 4-109-15-162-23-62-54-120-88-176-54-89-114-173-180-253-1-2-2-3-4-5z m1 365c95 0 173 77 173 171 0 96-77 174-172 174s-174-77-174-172c0-95 77-173 173-173z m414-536h-828c31 97 62 195 93 292h62c31 0 63 0 94 0 6 0 9-2 12-7 47-68 98-133 151-196a21 21 0 0 1 2-2c10 12 21 24 30 37 42 54 83 108 125 162 2 3 5 5 8 5 52 1 103 1 155 1a23 23 0 0 0 3-1q46-145 93-291z m-414 590a119 119 0 0 0-119 118c0 65 54 119 119 119 65 0 119-53 119-118a119 119 0 0 0-119-119z" horiz-adv-x="1000" />

<glyph glyph-name="khuyen-mai" unicode="&#xe809;" d="M889 483l0 10 0 29 0 10 0 29 0 10q0 15 0 30l0 9 0 30c0 3 0 6 0 10l0 29 0 10 0 29 0 10 0 29c0 3 0 7 0 10l0 29c0 4 0 7 0 10 0 1-1 3-1 4 0 26-3 29-29 29q-159 0-319 0a30 30 0 0 1-24-10q-253-253-506-507c-4-3-7-6-10-9v-14l34-35a28 28 0 0 0 8-8 56 56 0 0 0 11-11 27 27 0 0 0 8-8 56 56 0 0 0 12-12 27 27 0 0 0 8-8 56 56 0 0 0 11-11 28 28 0 0 0 8-8l12-12a27 27 0 0 0 8-8l11-11a27 27 0 0 0 8-9l12-11a27 27 0 0 0 8-8l12-12a28 28 0 0 0 8-8l11-11a28 28 0 0 0 8-8q6-6 12-12a28 28 0 0 0 8-8l11-11a27 27 0 0 0 8-8l12-12a27 27 0 0 0 8-8q6-6 11-11a27 27 0 0 0 8-9 57 57 0 0 0 12-11 28 28 0 0 0 8-8 57 57 0 0 0 11-12 27 27 0 0 0 9-8 57 57 0 0 0 11-11 27 27 0 0 0 8-8l14-12 7-1c6 1 10 4 14 8q255 255 510 510a30 30 0 0 1 9 15z m-81 227a47 47 0 0 0-49-49c-3 0-6 0-10 1a34 34 0 0 0-19 9 17 17 0 0 0-8 8c-5 5-9 12-10 19a10 10 0 0 0-1 8c-2 32 21 55 52 53 3 0 6 1 8-2a31 31 0 0 0 20-9 18 18 0 0 0 8-8c5-6 7-12 9-20a20 20 0 0 0 0-10z m106 102v-321a84 84 0 0 0-22-48c-21-23-469-471-469-471l188-106s27-17 42 13 347 624 347 624v24c0 12-86 285-86 285z" horiz-adv-x="1000" />

<glyph glyph-name="lien-he" unicode="&#xe80a;" d="M709-150c-13 2-26 4-39 7-73 16-136 52-195 97-74 57-136 126-193 199-63 81-118 167-157 262-25 60-43 121-45 186-2 46 3 91 24 134 6 13 15 25 23 39l198-261c-25-21-22-48-10-73a626 626 0 0 1 42-75c51-78 108-151 177-214a250 250 0 0 1 31-24c18-12 37-17 57-2l194-253c-17-12-36-17-55-20-3-1-6-1-9-2z m-459 1000c10-3 15-11 21-18q74-97 148-194c17-21 15-40-6-56-23-18-45-35-69-54l-198 261 87 61z m391-709c24 19 47 38 72 55 17 13 39 9 53-9q73-96 147-193c12-16 10-37-6-50-23-19-47-37-72-57-65 85-129 169-194 254z" horiz-adv-x="1000" />

<glyph glyph-name="loa-di-dong" unicode="&#xe80b;" d="M266 14a142 142 0 0 0-142 143c0 79 66 143 144 142 79-1 143-65 142-144 0-79-64-141-144-141z m0 24c65 0 119 53 120 117 0 65-55 121-120 120-64-1-118-55-118-119s54-118 118-118z m1 65a53 53 0 0 0-54 54c0 29 25 52 54 52s54-24 53-53a53 53 0 0 0-53-53z m267 465c0 39-11 50-50 50q-217 0-433 0c-41 0-51-10-51-52q0-297 0-594c0-48 5-54 52-58 18-22-17-63 33-64 11-1 29-1 30 4 7 18 8 39 12 59h279c17-20-18-59 32-64 58-6 29 41 40 63 56 10 56 10 56 69q0 293 0 587z m-481-654c1 0 1-1 0 0z m64 646h292l5-114h-300z m150-566c-88 0-163 75-162 163 1 89 73 160 163 160 88 0 160-72 161-160 1-88-74-163-162-163z m-170 623v143h-7v35s-13 24 3 36c0 0 146 33 311 8 0 0 36-4 44-9s7-31 0-34l0-35-6 0v-144h-31l-1 143-6 0-2 30-6 3-259-1-5-5v-26l-6 0 2-144z" horiz-adv-x="534" />

<glyph glyph-name="loa" unicode="&#xe80c;" d="M440 289v413c0 22 1 24 22 24q224 0 448 0c28 0 28 0 28-27v-827c0-21-1-22-23-22h-453c-22 0-22 1-22 23z m249-359c119 0 214 95 214 214a214 214 0 0 1-213 214c-119 0-214-95-216-214-1-112 95-216 215-214z m1 707c-68 0-123-54-124-121s55-122 122-122 123 54 124 121-55 121-122 122z m-273-555v-108c-5 0-10-1-15-1q-160 0-321 1c-22 0-23 1-23 23q0 415 0 831c0 20 1 22 21 22q228 0 456 0c20 0 21-2 21-21q0-38 0-76c0-1-1-2-2-5h-86c-40 0-49-8-52-52-23 37-54 60-96 65-42 4-78-11-106-43-44-51-37-127 13-171 57-50 124-38 189 33v-128c-61 33-123 40-187 15-43-16-77-45-102-83a214 214 0 0 1 15-253c52-63 156-110 275-49z m0 185c0-19-1-39 1-58 1-14-5-24-14-33-41-42-105-53-159-26-49 24-78 80-70 137 7 55 53 104 110 112 49 8 92-8 125-47 4-5 7-13 7-20 1-22 0-44 0-65z m-10 371c0-54-45-99-100-99-56 0-100 44-100 101a100 100 0 0 0 101 100c56-1 99-46 99-102z m10-261c-43 38-89 53-142 42-37-7-67-27-90-56a153 153 0 0 1 12-205c54-53 143-67 220-1 0-16 1-30 0-44 0-3-5-7-9-9-115-74-275 2-292 138-13 101 56 198 158 215 47 9 92 1 133-25 5-4 9-12 10-18 1-11 0-22 0-37z m271-41c106 0 194-86 195-192 0-104-88-193-192-194-106 0-196 87-196 193 1 113 92 193 193 193z m1-347c86 0 155 69 155 155 0 85-70 155-155 155s-155-70-155-155c0-86 69-155 155-155z m100 526a100 100 0 1 0-100 101c56-1 100-45 100-101z m33-371c0-74-58-133-132-134a133 133 0 0 0-134 133c-1 74 59 134 132 134a133 133 0 0 0 134-133z" horiz-adv-x="1000" />

<glyph glyph-name="micro" unicode="&#xe80d;" d="M316 565c30-115 101-184 214-213-24-17-48-33-71-50-80-55-158-112-230-176-12-11-24-22-36-33-18-18-39-20-58-2-19 18-37 37-56 55-8 9-17 17-25 25-15 18-15 39 0 55 82 83 150 177 217 272 15 22 29 44 45 67z m18-166c-3-1-9-3-13-7q-29-27-57-56c-10-11-9-25 1-35 11-11 24-12 35-1 19 18 38 37 57 56 7 8 9 17 5 26-5 11-12 17-28 17z m398 45c-74-69-210-80-303 4-101 91-94 239-19 320q161-162 322-324z m-287 356c82 67 217 67 304-23 88-92 78-225 15-298z m-388-690l29-31c-6-6-13-14-19-21-25-35-32-72-10-111 23-39 58-56 103-53 28 3 51 18 70 37q139 139 278 277c27 28 58 47 97 54 74 13 154-45 165-119 7-52-11-95-46-132-43-45-88-88-132-133-8-8-17-12-29-7-9 5-13 14-11 24a32 32 0 0 0 9 14q62 62 124 123c19 20 36 41 41 68 9 48-18 95-64 113-45 17-84 3-117-29-83-82-164-164-247-246-23-23-45-47-72-65-87-56-204-5-224 97-8 47 8 87 38 122 5 6 10 12 17 18z" horiz-adv-x="813" />

<glyph glyph-name="mixer" unicode="&#xe80e;" d="M149 447v-34h-35v34z m737-157c2 10 7 17 18 17s17-6 18-16c1-9-9-20-18-19-11 1-16 8-18 18z m-240 41c0-12-9-20-21-20s-21 9-21 21c0 11 10 21 21 21 11 0 21-10 21-22z m86-21a21 21 0 0 0-21 22 22 22 0 0 0 21 21c11 0 23-11 22-22s-11-21-22-21z m-359 0c-11 1-20 11-19 22a21 21 0 0 0 21 21c11 0 21-11 20-23a22 22 0 0 0-22-20z m-85 21c0-11-10-21-21-21a21 21 0 0 0-21 21c0 13 9 23 22 22a21 21 0 0 0 20-22z m-288 122v-189h116c1-7 1-12 2-17h64c1 6 1 11 2 17h632c1-7 1-12 2-17h64c1 7 2 12 3 18h115v188z m46-171h-16a10 10 0 1 0 0 20h16a10 10 0 1 0 0-20z m0 132h-16a10 10 0 0 0 0 20h16a10 10 0 1 0 0-20z m221-117c-19 0-34 16-34 36 1 19 16 33 35 33 18 0 33-16 33-35 0-18-16-34-34-34z m34 112h-69a12 12 0 1 0 0 25h69a12 12 0 1 0 0-25z m73-112c-18 0-33 16-33 35 0 19 14 34 33 34 20 0 35-15 34-35a35 35 0 0 0-34-34z m35 112h-69a12 12 0 1 0 0 25h69a12 12 0 1 0 0-25z m120-111h-58v26h58z m97-1c-19-1-35 15-35 34-1 19 15 35 33 35 19 0 36-15 36-34 0-18-16-34-34-35z m37 112h-69a12 12 0 0 0 0 25h69a12 12 0 0 0 0-25z m70-112a35 35 0 0 0-35 35 35 35 0 0 0 34 34c18 0 34-15 35-33 1-19-15-36-34-36z m39 112h-69a12 12 0 1 0 0 25h69a12 12 0 1 0 0-25z m198-127h-16a10 10 0 1 0 0 20h16a10 10 0 1 0 0-20z m0 132h-16a10 10 0 1 0 0 20h16a10 10 0 1 0 0-20z" horiz-adv-x="1000" />

<glyph glyph-name="nha" unicode="&#xe80f;" d="M500 587l-357-294a9 9 0 0 0 0-2 8 8 0 0 1 0-1v-298a40 40 0 0 1 39-40h239v238h158v-238h239a40 40 0 0 1 39 40v298a9 9 0 0 1 0 3z m493-227l-136 113v253a19 19 0 0 1-20 20h-119a19 19 0 0 1-19-20v-121l-152 127q-20 16-47 16t-47-16l-446-372a18 18 0 0 1-7-13 20 20 0 0 1 4-15l39-46a21 21 0 0 1 13-6 23 23 0 0 1 15 4l429 358 429-358a19 19 0 0 1 13-4h2a21 21 0 0 1 13 6l39 46a20 20 0 0 1 4 15 18 18 0 0 1-7 13z" horiz-adv-x="1000" />

<glyph glyph-name="phu-kien-am-thanh" unicode="&#xe810;" d="M105 499h-38v39h38z m1-40v-38h-39v38z m828-176c1 11 7 19 19 19s19-7 20-19c1-10-10-21-20-20-12 1-18 8-19 20z m-444 548c81-1 149-15 214-43 34-16 48-47 35-79-13-30-46-42-80-27a398 398 0 0 1-173 32 378 378 0 0 1-136-29c-18-8-36-14-56-6-23 8-36 26-37 50s9 44 32 55a462 462 0 0 0 148 42c21 2 42 4 53 5z m-310-556c19-1 37-12 47-34q61-147 121-294c12-29-2-61-30-73-30-12-62 1-75 31-21 50-42 100-63 150-19 47-38 93-58 140-16 39 11 81 58 80z m641 0c45 1 73-40 58-77-33-82-68-164-102-247-6-15-13-31-19-46-11-24-35-38-58-35-27 3-47 22-51 47a63 63 0 0 0 4 31q60 147 121 293c9 23 28 33 47 34z m-359 6v19c0 63 1 126 0 189 0 10 2 14 13 16 81 15 162 31 242 47 4 0 7 0 12 1v-40c0-68-1-136 0-204 1-31-10-45-38-57a92 92 0 0 0-60-5c-13 4-25 10-29 24-3 14 4 25 15 33 23 19 50 24 81 19v149l-205-40v-84c0-32-1-63 0-94 0-13-5-24-14-31-27-21-57-28-89-18-29 10-33 35-10 55a88 88 0 0 0 57 21c8 0 16 0 25 0z m308-400l135 324c21-13 39-30 54-50 31-43 48-91 38-145-12-62-53-100-110-121-36-14-73-16-111-10a40 40 0 0 0-6 2z m-540-1a207 207 0 0 0-93 2c-45 11-84 32-111 72-35 53-33 109-7 164 18 38 47 70 77 87 44-108 89-215 134-325z m511 792l25 44c116-73 216-228 203-415l-51 11c4 150-57 270-177 360z m-658-360l-51-11c-29 126 82 355 203 415 8-14 16-29 25-44-121-89-182-210-177-360z m255 84l36 37-66 45c-15-15-30-30-45-45-6-7-13-10-22-7-11 4-20 10-23 22-2 8 2 15 10 13 11-3 22-8 35-13 14 14 31 31 48 49 6 6 11 8 19 2 24-18 50-34 75-51-24-25-47-48-70-71-8-8-18-5-25 1s-13 13-16 22c-3 7 6 11 12 9 10-3 20-8 32-13z m-290-200c-7 19-15 37-21 55-4 12 1 21 12 27a64 64 0 0 0 8 5c12 5 25 12 36 1 12-12 24-27 16-46a24 24 0 0 0-7-10c-14-10-28-20-44-32z m905 0c-17 12-32 22-45 33-5 3-7 10-8 16-6 20 19 47 38 43a95 95 0 0 0 26-12c10-6 13-16 9-26-6-18-13-35-20-54z" horiz-adv-x="1000" />

<glyph glyph-name="power" unicode="&#xe811;" d="M141 486h-34v35h34z m1-38v-33h-35v33z m-106 73h33v-35h-33z m858-232c1 11 6 17 17 17s17-6 19-16c1-9-10-20-19-19-10 1-16 7-17 18z m15-89c-9 1-15 7-15 18a17 17 0 0 0 18 17c11 0 17-7 18-17 0-10-9-18-21-18z m-909 347v-353l35-1v-40h116v40h697v-39h119v40h33v353z m73-310c-17 0-31 14-31 32 1 18 14 30 31 30a31 31 0 0 0 32-31 32 32 0 0 0-32-31z m32 120v131h223v-131z m86-107c-11 0-19 6-19 20 1 10 7 17 19 17 12 0 19-8 19-19s-8-19-19-18z m138-6a25 25 0 0 0-23 25c1 13 13 24 25 24 13-1 23-12 23-25a24 24 0 0 0-25-24z m61 1c-13-1-24 10-24 23 0 12 11 24 24 25 12 0 23-11 24-24 0-14-10-24-24-24z m81-1a24 24 0 0 0-24 23c0 15 10 26 24 26 12 0 23-13 23-25-1-12-12-24-23-24z m59 1a23 23 0 0 0-24 24c0 12 12 24 24 24 12 0 24-13 24-25 0-12-12-23-24-23z m-31 106c-39 1-71 33-71 72 1 39 33 71 72 71 40 1 71-32 71-72-1-40-33-72-72-71z m110-107a24 24 0 0 0-23 25c0 13 12 24 24 24a25 25 0 0 0 24-25 25 25 0 0 0-25-24z m60 0c-13 0-24 12-23 25s12 24 24 24 24-13 23-25-12-25-24-24z m130 6c-11-1-19 7-19 18 0 11 7 19 19 19s18-7 19-18c0-13-8-19-19-19z m96 107h-223v131h223z m30-120c-17 0-31 15-30 33s16 31 34 29a31 31 0 0 0 29-31c-1-18-16-32-33-31z m-806 238h196v-105h-196z m5-6v-80h185v80z m434-46c0-33-25-58-58-58s-58 25-59 57c0 32 28 60 59 60a58 58 0 0 0 58-59z m127 52v-105h196v105z m190-86h-184v80h184z m-13 67h-158v-54h158z m-725-54v55h158v-55z" horiz-adv-x="1000" />

<glyph glyph-name="thiet-bi-am-thanh" unicode="&#xe812;" d="M182 236a91 91 0 0 0-91 91c0 50 42 92 91 91 51-1 91-39 91-91 0-53-43-91-91-91z m637 0c-50 1-92 41-91 91 0 52 40 91 91 91 50 1 91-41 91-90s-41-92-91-92z m-637-159c12 0 23-11 23-23a24 24 0 0 0-23-22 23 23 0 0 0-23 22 23 23 0 0 0 23 23z m637 0a23 23 0 0 0 23-23h0a24 24 0 0 0-23-22c-12 0-23 11-23 23a23 23 0 0 0 23 22z m-614 523c-1-12-12-23-24-23s-22 12-22 24c1 12 12 23 24 22s22-12 22-23z m637 1c0-13-11-24-23-24-12 1-23 11-23 23s11 23 23 23a24 24 0 0 0 23-22z m-842-662v822c4-1 8-1 13-1h351v-500h273v499h363v-819h-986c-5 0-9 0-14-1z m182 252c75 0 137 62 136 137a136 136 0 0 1-272 0c-1-75 60-137 136-137z m773 135c2 72-59 136-131 137-77 2-139-56-141-134-3-73 58-136 132-138 77-1 138 58 140 135z m-544-113v-113h179v113z m-229-227a69 69 0 0 1 68 68c1 37-30 68-68 68a68 68 0 0 1-68-67c-1-37 31-69 68-69z m637 136a68 68 0 0 1-68-67c-1-37 31-69 68-69 37 0 68 31 68 68s-31 68-68 68z m-636 546c-35 0-66-25-69-66-2-36 28-69 67-70 35 0 67 25 69 66 1 36-24 68-67 70z m636-136c36 0 67 30 68 67 1 37-30 69-68 69-36 1-67-29-68-67-1-36 30-68 67-69z m-387-478h-44v-44h44z m181-44v43h-44v-43z m-90 0c0 13 0 26 0 38 0 2-3 6-4 6-14 0-27 0-41 0v-44z" horiz-adv-x="1000" />

<glyph glyph-name="thong-tin-hoat-dong" unicode="&#xe813;" d="M1000-63c-5-11-14-15-26-15q-474 1-947 0c-13 0-22 4-27 15v825a25 25 0 0 0 16 16h69c12-5 15-15 15-27q0-361 0-722v-7h10q432 0 864 1c12 0 21-4 26-15z m-400 456l176 176c-1 2-2 3-3 4-17 18-35 35-52 52-2 2-3 6-5 8 3 2 5 4 8 4q70 11 139 22 38 6 77 13c8 1 11-2 10-10-4-24-8-47-12-71q-10-61-19-123c-2-8-3-16-4-23-1-3-2-6-4-7s-5 2-6 3c-19 19-37 37-55 55-1 1-2 2-3 2l-247-246-100 100-230-230-70 70 301 300z" horiz-adv-x="1000" />

<glyph glyph-name="tin-tuc" unicode="&#xe814;" d="M160 850h660a41 41 0 0 1 3-4q86-93 172-187a22 22 0 0 0 5-14q0-366 0-733a62 62 0 0 0-14-39c-9-12-22-18-37-23h-789c-3 1-6 3-10 4a62 62 0 0 0-41 58q0 438 0 876a62 62 0 0 0 41 58c4 1 7 3 10 4z m183-555q60 0 121 0c23 0 36 13 36 36q0 105 0 209c0 24-12 37-37 37q-120 0-240 0c-23 0-35-13-35-36q0-105 0-211c0-22 13-35 35-35q60 0 120 0z m423-47q-60 0-120 0c-24 0-37-12-37-36q0-104 0-207c0-26 12-38 38-38h239c23 0 36 13 36 36q0 105 0 209c0 24-13 37-36 37q-60 0-120-1z m-337 375q104 0 208 0c22 0 35 13 35 35 0 14 0 27 0 41 0 20-13 34-34 34q-208 0-417 0c-20 0-33-14-33-33-1-13 0-26 0-39 0-25 12-38 37-38q102 0 204 0z m305-78q83 0 165 0a41 41 0 0 1 10 1c8 2 13 7 13 15s-5 13-13 15a37 37 0 0 1-9 1l-331 0a64 64 0 0 1-7-1c-9-1-15-7-15-15s6-15 15-16a77 77 0 0 1 9 0z m0-31h-165a41 41 0 0 1-9 0c-8-2-13-8-13-16s5-13 13-15a37 37 0 0 1 9 0h330a61 61 0 0 1 8 0c9 1 15 8 15 16s-7 14-15 15a73 73 0 0 1-9 0z m0-94h166a43 43 0 0 1 8 1c8 1 13 6 14 14 0 9-5 14-13 16a34 34 0 0 1-8 1q-167 0-333 0a34 34 0 0 1-8-1c-8-2-13-7-13-15 0-9 5-14 13-15a45 45 0 0 1 10-1q82 0 164 0z m0-62h105c21 0 43 0 64 0 11 0 19 6 19 15s-8 16-19 16c-2 0-4 0-6 0h-328a43 43 0 0 1-8 0c-9-2-14-7-14-16s6-13 14-15a47 47 0 0 1 9 0z m0-63h89c27 0 54 0 81 0 11 0 18 7 18 16s-7 15-18 15c-1 0-3 0-5 0l-329 0c-4 0-8 2-10 0-5-4-11-8-12-13-1-5 4-12 8-15 2-3 8-3 13-3q82 0 165 0z m-358-47h-87c-28 0-56 1-84 0-10 0-17-6-17-15s7-15 17-16c2 0 4 0 5 0l330 0c3 0 7-1 9 1 5 3 11 7 13 12 1 4-3 11-6 15-4 3-10 3-15 3-55 1-110 1-165 1z m-2-93h165c16 0 24 5 24 15s-8 16-24 16h-330a38 38 0 0 1-8 0c-8-2-13-7-13-16s5-13 13-15a45 45 0 0 1 9 0z m0-63h85c29 0 57 0 86 0 10 0 17 7 17 16s-7 15-17 15c-2 0-3 0-5 0h-330c-3 0-7 1-9 0-5-4-11-8-12-12-2-5 2-12 6-15 3-3 9-4 14-4 55 0 110 0 165 0z m1-62h165a40 40 0 0 1 10 0c8 2 12 7 12 15s-5 14-12 15a37 37 0 0 1-9 1h-331a61 61 0 0 1-8 0c-8-1-14-8-14-16s6-14 15-15a68 68 0 0 1 7 0z m0-63h103c22 0 45 0 67 0 11 0 18 7 18 16s-7 15-18 15c-2 0-3 0-5 0q-164 0-329 0a46 46 0 0 1-10 0c-8-2-13-7-13-15s5-14 13-16a42 42 0 0 1 9 0z m574 696l-121 131c0-36 0-69 1-103 0-15 14-28 29-28 30-1 59 0 91 0z m-847 187c-6-9-11-18-17-27a9 9 0 0 0-6-4 83 83 0 0 0-11 0c-23 0-37-14-37-37q0-432 0-864c0-23 14-37 37-37 5 0 10 0 14 0l20-31h-51c-14 6-29 11-37 25-6 8-9 17-14 26v898c5 9 8 18 14 26 8 14 23 19 37 25z" horiz-adv-x="1000" />

<glyph glyph-name="tuyen-dung" unicode="&#xe815;" d="M221 34c-64-1-124 9-181 33-18 8-36 15-39 37-3 29 1 55 25 74 15 12 33 19 52 25 20 6 40 11 60 17 24 8 28 21 17 43-14 30-26 61-43 90-4 7-6 14 3 20 4 2 3 6 2 10 0 5-1 10-2 15-10 81 62 108 112 94 2 0 4-1 7-1 10-2 12-6 8-17-25-68-28-137 1-205a275 275 0 0 1 32-58c7-9 8-16 0-24-13-13-19-29-19-47 0-15 0-29-1-44 0-20 10-34 27-44 3-2 6-3 9-5 3-2 6-3 5-6-1-4-4-3-7-3-23-2-47-5-68-4z m522 339c3-129-107-241-241-242-137-1-248 108-248 241 0 131 104 243 245 244 137 0 247-113 244-243z m-35-1c3 113-93 206-205 208-116 1-213-94-212-208a208 208 0 0 1 208-206c116-1 211 94 209 206z m174 28c1-12 1-22 5-33 4-11-2-26-11-36a44 44 0 0 1-12-24 124 124 0 0 0-19-47c-11-16-7-28 10-35 26-11 54-17 81-26 11-3 23-8 33-15 33-22 35-52 27-88-3-17-18-25-34-30-8-2-13 4-18 8q-66 66-132 131c-17 16-34 32-59 34-9 1-7 7-4 13a277 277 0 0 1 27 124 268 268 0 0 1-22 103c-5 13-2 15 10 16 36 1 67-11 95-31 22-15 25-40 23-64z m87-417c2-12-2-22-10-30a264 264 0 0 0-28-27c-15-12-32-11-48-3-10 5-19 13-28 21q-85 79-165 164c-8 8-14 18-13 29 1 6 0 10-4 14-8 7-8 14 0 22 13 11 24 23 36 35 6 6 13 9 21 2a11 11 0 0 1 8-3c19 2 33-8 46-21q83-82 167-164c11-11 20-22 18-39z m-230 704c0-11-1-22 6-32 4-7-1-16-5-22-14-20-20-42-27-64-4-14-6-14-16-4-41 40-90 66-147 77-11 2-19 5-11 19 4 6 1 14 1 21 0 14 0 28 3 42 7 32 35 55 70 59 24 2 46-2 66-13a52 52 0 0 1 6-3c43-17 55-35 54-80z m-281-2c0-9-2-18 4-29 6-10-6-13-14-14a295 295 0 0 1-65-21c-29-13-55-33-79-54-10-9-13-6-17 4-8 21-14 42-29 60a22 22 0 0 0-1 28c6 9 3 20 2 30-2 27 2 52 23 72 25 24 72 29 110 12 6-3 11-6 17-8 35-14 48-32 49-69 0-3 0-6 0-11z m-1-652c-41 0-81 2-119 19-49 22-58 46-48 102a34 34 0 0 0 8 15c5 6 9 7 15 1 43-45 98-65 158-69 49-4 97 1 142 21 8 4 18 14 25 12 8-2 5-17 9-25 6-12 13-22 23-30 10-6 7-10-2-13-36-16-75-22-115-27a862 862 0 0 0-96-6z m-44 185c9 4 15 6 21 9 14 9 17 23 9 38-10 18-20 35-24 56-3 11-13 18-18 29-4 8-10 17 1 25 3 2 2 6 1 10-2 18-1 36 2 54 4 29 29 49 63 55 21 3 41 1 60-6 13-5 26-10 38-15 16-8 27-20 30-38 3-16 5-32 3-48a15 15 0 0 1 0-8c8-18 7-31-8-45a27 27 0 0 1-9-17c-2-19-9-36-19-52-12-18-6-33 14-43 2-1 6 0 6-4s-2-4-5-5c-54-26-108-20-165 5z" horiz-adv-x="1000" />

<glyph glyph-name="ve-chung-toi" unicode="&#xe816;" d="M769 199c-5 58-31 102-78 130q-42 25-84 50c-6 3-12 7-19 11-5-59-17-115-40-169a16 16 0 0 0-1 2c-8 25-17 50-30 72a8 8 0 0 0 0 6c4 9 9 17 14 27l-22 31c13 10 25 20 39 28s20 19 17 36a9 9 0 0 0 3 6c27 24 40 56 41 94 0 29 0 57 0 86-1 34-15 62-42 79-43 29-88 29-133 2-27-16-42-43-43-77-1-33-1-65 0-97 1-30 11-58 32-78 9-9 13-18 11-30-1-6 1-9 6-12 17-12 33-25 50-37l-22-31c5-10 10-17 13-25 2-3 1-7 0-10-7-17-15-33-22-50-3-7-5-14-8-23-23 55-35 111-40 170-14-8-28-16-41-24-26-16-53-32-79-50-31-21-49-52-57-91-8-38-9-76-9-114a3 3 0 0 1 0-1h551c-2 30-4 59-7 89z m-555-89c1 24 2 48 3 71 1 7 2 13-2 20-8 17-14 34-21 51-1 2-1 6 0 7 3 7 6 13 11 20-6 7-12 16-18 24 3 3 6 5 9 7 8 6 16 12 24 17 8 5 12 12 10 23 0 4 1 7 4 10a84 84 0 0 1 29 59c2 27 2 54 1 81-1 29-15 51-39 64-30 16-61 16-91 0-24-13-38-35-39-65-1-25-1-49 0-74 1-24 9-45 26-61 6-6 9-12 8-21-1-6 1-9 6-12 11-8 21-16 32-24l5-4-18-25c4-5 7-9 10-14 3-5 2-9 0-15-7-15-13-31-19-46-1-2-1-4-2-7-19 42-28 85-32 131-9-5-17-10-25-14-24-16-49-30-72-46a85 85 0 0 1-14-12v-145z m29 172l26 33-20 12c-2-16-4-31-6-45z m507 45l-21-13c5-5 10-11 15-16s8-11 12-18c-2 16-4 31-6 47z m221-49c-27 16-54 32-81 48-1 0-1 0-2 0-4-45-13-88-31-130-1 3-2 5-3 8-6 14-11 28-17 42-5 11-5 16 3 25a70 70 0 0 0 6 6l-19 26c10 8 21 17 32 24 9 5 13 12 11 23a10 10 0 0 0 3 8c21 19 30 44 31 73q1 33 0 65c-1 29-12 51-35 65-29 18-59 19-89 6-30-13-45-40-45-75 0-19-1-39 0-58 0-30 9-56 31-76a8 8 0 0 0 2-6c-2-14 4-21 15-27 8-6 17-13 25-19 2-1 3-2 4-3l-17-24c4-8 7-14 10-20a8 8 0 0 0 0-6c-7-18-14-36-21-53-1-3-3-5-3-7 1-26 3-52 4-77q0-3 0-7h215v144a117 117 0 0 1-29 25z" horiz-adv-x="1000" />

<glyph glyph-name="video-clip" unicode="&#xe817;" d="M499-79q-191 0-381 0c-85 0-118 33-118 117q0 313 0 625c0 81 35 116 116 116q385 0 770 0c78 0 114-35 114-114q0-316 0-632c0-77-35-112-113-112-129 0-259 0-388 0z m170 428l-288 144v-289z m-480 240v93h-92v-93z m145 1h95v93h-95z m238 93v-93h94v93z m332 0h-94v-93h94z m-808-575v-93h94v93z m333-1h-94v-92h94z m237 1h-94v-93h94z m144-91h94v91h-94z" horiz-adv-x="1000" />
</font>
</defs>
</svg>
